Hot Soup - Openers (1969, US, soulyfunkypsychrock, RamaRama vinyl rip, single wav + cue, DR11, artwork)



This one's largely a mystery to me - I've looked and looked, but found virtually no bibliographical information on the net, or any of the reference works I own.   What little I can tell you about the band comes from the brief inner sleeve liner notes by producer Saul Mizrahi.

Here's an executive summary of Mizrahi's notes -  The band consisted of
keyboardist Willie Akridge, bassist Frank Carillo, singer/lead guitarist Mario Castellano, and drummer Glenn R. Tappan.  Born in Havana, Cuba and raised in Miami Beach, Florida, by the time he was a teenager Castellano was touring throughout the South as a member of The Pods who were apparently a Beatles influenced cover band.  He met Akridge while playing a show in Dothan, Alabama and a couple of years later the two somehow crossed paths with Carillo and Tappan and began playing around New York City where they caught the attention of manager Billy Mann. 

Packaged in an extremely psychedelic looking cover, 1969's Mizrahi produced "Openers" looked pretty promising when I stumbled across it at a community yard sale.  So much for covers ...   With Castellano and Carillo separately responsible for all twelve tracks, the cover was the most psychedelic feature here.  Most of the album found the quartet working in a blue-eyed soul vein.  Imagine a heavier version of The Young Rascals and you'd get a feel for songs like 'Gettin In My Way Again', 'He Answered My Prayers' and 'Why Do You Want To Hurt Me'.  I'm a big Rascals fan so that comparison was meant as a compliment in my book.  Other positives - Castellano had a great and highly versatile voice while the band played with considerable energy throughout.  Also worth mentioned; there were a couple of notable exceptions to their blue-eyed soul catalog.  The closer 'Ain't No Reason' was an atypical fuzz drenched blues-rocker.  'You Took Me By Surprise' was a nice rocker while 'Groovy Feelin' was kicked along by some nice fuzz lead guitar and rocked harder than anything else on the LP making it the standout track.  The album also spun off a 45 in the form of:

-  1969's 'You Took Me By Surprise' b/w 'Gettin In My Way Again' (Rama Rama catalog number RR-7775)

And that was apparent the end of the story ...  All told a pleasant discovery.  Nothing to spend your next paycheck on, but worth looking for. 

"Openers" track listing:
(side 1)
1.) Gettin In My Way Again   (Frank Carillo) - 2:15
2.) Baby's Wearing Blue  (Mario Castellano) - 2:15
3.) He Answered My Prayers  (Mario Castellano) - 2:16
4.) Listen Now   (Frank Carillo) - 2:02
5.) Why Do You Want To Hurt Me  (Mario Castellano) - 2:34
6.) Groovy Feelin  (Mario Castellano) - 3:09
(side 2)
1.) You Took Me By Surprise  (Mario Castellano) - 2:41
2.) You Got To Set Me Free  (Mario Castellano) - 2:08
3.) Oh No! Not Again  (Mario Castellano) - 3:02
4.) Once Before  (Mario Castellano) - 2:50
5.) Farewell Sweet Papa  (Mario Castellano) - 3:15
6.) Ain't No Reason  (Mario Castellano) - 2:23

Akridge's post-Hot Soup career found him playing in a number of bands including High Street Carnival, Cadillac Jack, The Woolvin James Band, and Quick.  He apparently continued to play keyboards till the end of his life - he apparently died in the mid-1990s though I've never seen his obituary.

Carillo's enjoyed an extensive solo recording career and though it doesn't mention The Hot Soup, he has an extensive website at:

http://www.frank-carillo.com/

Tappan  remained active in music operating GRT Unlimited Recording Studios in Florida and still plays and is a member of the Treebo Jazz Band.

No luck tracking down Castellano.  Anyone know what happened to him?
~rateyourmusic (RDTEN1)

Mostly soul oriented vocal rock, with some period flavor shining through on the better tracks. This highly inconsistent album is worthwhile to underground fans for the few hard rock stand-outs. Otherwise, to my ears, it's eminently forgettable. Grades - 1 B+, 1 B, 1 B-, 2 C+'s, 1 c, 2 C-'s, and 2 F's
~rateyourmusic (tymeshifter)


Tracks:
side one
A1 Gettin' In My Way Again
A2 Baby's Wearing Blue
A3 He Answered My Prayers
A4 Listen Now
A5 Why Do You Want To Hurt Me
A6 Groovy Feelin
side two
B1 You Took Me By Surprise
B2 You Got To Set Me Free
B3 Oh No! Not Again
B4 Once Before
B5 Farewell Sweet Papa
B6 Ain't No Reason

Hot Soup - Groovy Feelin (US,69)

Hot Soup:
Mario Castellano - guitar, vocal
Willie Akridge - organ
Frank Carillo - bass
Glenn R. Tappan - drums


[Rip and scans by gigic2255]

Link:   326 mb/file

https://mega.nz/#!fF52iaQQ!CimudFhZgxZSJRR9I_9eY3C0jbFWU0W9WsUbtlvHd7w

Comentários

  1. Hello daddy gigic!!!
    Yeah..this always a great pleasure to examine, Your shares,everything is perfect and handy every time!...Album which turned out to be pleasant surprise for me...Many thanks, my friend You're irreplaceable and as always reliable!!

    big hugs, :)
    ADAM

    ResponderExcluir
  2. FILEOM TROJAN AND OTHER VIRUS

    PROTECTION STOP

    ResponderExcluir
  3. This can be downloaded from FILEOM without their Trojans. You want Slow Download. Then never click a button that has a downward facing arrow. Uncheck the box asking if you want offers. If a download popup appears, do not continue if the file size isn't the size that is noted above.

    My question: The cue file wasn't completed. Can someone please post a working cue file to split the album into tracks. Thanks.

    ResponderExcluir
    Respostas
    1. REM GENRE Rock / Funk / Soul
      REM DATE 19XX
      REM COMMENT Rip by gigic2255
      PERFORMER "The Hot Soup"
      TITLE "Openers"
      FILE "The Hot Soup - Openers.wav" WAVE
      TRACK 01 AUDIO
      TITLE "Gettin' In My Way Again"
      INDEX 01 00:00:00
      TRACK 02 AUDIO
      TITLE "Baby's Wearing Blue"
      INDEX 01 02:20:21
      TRACK 03 AUDIO
      TITLE "He Answered My Prayers"
      INDEX 01 04:37:53
      TRACK 04 AUDIO
      TITLE "Listen Now"
      INDEX 01 06:58:17
      TRACK 05 AUDIO
      TITLE "Why Do You Want To Hurt Me"
      INDEX 01 09:04:46
      TRACK 06 AUDIO
      TITLE "Groovy Feelin"
      INDEX 01 11:45:56
      TRACK 07 AUDIO
      TITLE "You Took Me By Surprise"
      INDEX 01 15:03:19
      TRACK 08 AUDIO
      TITLE "You Got To Set Me Free"
      INDEX 01 17:48:43
      TRACK 09 AUDIO
      TITLE "Oh No! Not Again"
      INDEX 01 20:03:19
      TRACK 10 AUDIO
      TITLE "Once Before"
      INDEX 01 23:15:33
      TRACK 11 AUDIO
      TITLE "Farewell Sweet Papa"
      INDEX 01 26:07:24
      TRACK 12 AUDIO
      TITLE "Ain't No Reason"
      INDEX 01 29:33:26

      Excluir
    2. REM GENRE Rock / Funk / Soul
      REM DATE 19XX
      REM COMMENT Rip by gigic2255
      PERFORMER "The Hot Soup"
      TITLE "Openers"
      FILE "The Hot Soup - Openers.wav" WAVE
      TRACK 01 AUDIO
      TITLE "Gettin' In My Way Again"
      INDEX 01 00:00:00
      TRACK 02 AUDIO
      TITLE "Baby's Wearing Blue"
      INDEX 01 02:20:21
      TRACK 03 AUDIO
      TITLE "He Answered My Prayers"
      INDEX 01 04:37:53
      TRACK 04 AUDIO
      TITLE "Listen Now"
      INDEX 01 06:58:17
      TRACK 05 AUDIO
      TITLE "Why Do You Want To Hurt Me"
      INDEX 01 09:04:46
      TRACK 06 AUDIO
      TITLE "Groovy Feelin"
      INDEX 01 11:45:56
      TRACK 07 AUDIO
      TITLE "You Took Me By Surprise"
      INDEX 01 15:03:19
      TRACK 08 AUDIO
      TITLE "You Got To Set Me Free"
      INDEX 01 17:48:43
      TRACK 09 AUDIO
      TITLE "Oh No! Not Again"
      INDEX 01 20:03:19
      TRACK 10 AUDIO
      TITLE "Once Before"
      INDEX 01 23:15:33
      TRACK 11 AUDIO
      TITLE "Farewell Sweet Papa"
      INDEX 01 26:07:24
      TRACK 12 AUDIO
      TITLE "Ain't No Reason"
      INDEX 01 29:33:26

      Excluir

Postar um comentário